<?xml version="1.0" standalone="no"?>
<!DOCTYPE svg PUBLIC "-//W3C//DTD SVG 1.1//EN" "http://www.w3.org/Graphics/SVG/1.1/DTD/svg11.dtd" >
<svg xmlns="http://www.w3.org/2000/svg">
<metadata>Generated by IcoMoon</metadata>
<defs>
<font id="icomoon" horiz-adv-x="1024">
<font-face units-per-em="1024" ascent="960" descent="-64" />
<missing-glyph horiz-adv-x="1024" />
<glyph unicode="&#x20;" horiz-adv-x="512" d="" />
<glyph unicode="&#xe900;" glyph-name="trash" d="M48 736c0 17.673 14.327 32 32 32h864c17.67 0 32-14.327 32-32s-14.33-32-32-32h-864c-17.673 0-32 14.327-32 32zM416 896c-16.974 0-33.252-6.743-45.255-18.745s-18.745-28.281-18.745-45.255v-96c0-17.673-14.327-32-32-32s-32 14.327-32 32v96c0 33.948 13.485 66.505 37.491 90.51s56.562 37.49 90.509 37.49h192c33.946 0 66.502-13.486 90.509-37.49s37.491-56.562 37.491-90.51v-96c0-17.673-14.33-32-32-32s-32 14.327-32 32v96c0 16.974-6.746 33.252-18.746 45.255s-28.28 18.745-45.254 18.745h-192zM176 768c17.673 0 32-14.327 32-32v-672c0-16.973 6.743-33.254 18.745-45.254s28.281-18.746 45.255-18.746h480c16.973 0 33.254 6.746 45.254 18.746s18.746 28.282 18.746 45.254v672c0 17.673 14.33 32 32 32s32-14.327 32-32v-672c0-33.946-13.485-66.502-37.491-90.509s-56.563-37.491-90.509-37.491h-480c-33.948 0-66.505 13.485-90.509 37.491s-37.491 56.563-37.491 90.509v672c0 17.673 14.327 32 32 32zM416 528c17.673 0 32-14.327 32-32v-288c0-17.67-14.327-32-32-32s-32 14.33-32 32v288c0 17.673 14.327 32 32 32zM608 528c17.673 0 32-14.327 32-32v-288c0-17.67-14.327-32-32-32s-32 14.33-32 32v288c0 17.673 14.327 32 32 32z" />
<glyph unicode="&#xe901;" glyph-name="edit" d="M35.285 774.127c22.593 22.593 53.235 35.285 85.186 35.285h316.235c16.633 0 30.118-13.484 30.118-30.118s-13.484-30.118-30.118-30.118h-316.235c-15.976 0-31.296-6.346-42.593-17.642s-17.642-26.617-17.642-42.593v-632.471c0-15.974 6.346-31.298 17.642-42.592s26.617-17.643 42.593-17.643h632.471c15.974 0 31.298 6.349 42.592 17.643s17.643 26.618 17.643 42.592v316.235c0 16.633 13.487 30.118 30.118 30.118s30.118-13.484 30.118-30.118v-316.235c0-31.949-12.692-62.59-35.286-85.185s-53.236-35.286-85.185-35.286h-632.471c-31.951 0-62.593 12.692-85.186 35.286s-35.285 53.236-35.285 85.185v632.471c0 31.951 12.692 62.593 35.285 85.185zM843.294 845c-17.426 0-34.141-6.923-46.466-19.248l-423.28-423.278-30.979-123.917 123.916 30.979 423.28 423.278c12.324 12.324 19.245 29.039 19.245 46.469s-6.921 34.144-19.245 46.469c-12.324 12.324-29.039 19.248-46.472 19.248zM754.236 868.345c23.618 23.621 55.651 36.891 89.058 36.891s65.44-13.27 89.064-36.891c23.618-23.62 36.888-55.656 36.888-89.061s-13.27-65.441-36.888-89.061l-429.179-429.175c-3.86-3.861-8.696-6.602-13.991-7.921l-180.706-45.176c-10.263-2.566-21.12 0.44-28.601 7.921s-10.488 18.336-7.922 28.6l45.176 180.706c1.324 5.295 4.062 10.132 7.922 13.991l429.179 429.176z" />
<glyph unicode="&#xe902;" glyph-name="wrong" d="M512 866.909c-231.357 0-418.909-187.552-418.909-418.909 0-231.359 187.552-418.909 418.909-418.909 231.359 0 418.909 187.55 418.909 418.909 0 231.357-187.55 418.909-418.909 418.909zM0 448c0 282.77 229.23 512 512 512 282.768 0 512-229.23 512-512 0-282.768-229.232-512-512-512-282.77 0-512 229.232-512 512zM684.549 620.549c18.176-18.177 18.176-47.648 0-65.826l-279.272-279.272c-18.177-18.176-47.648-18.176-65.826 0s-18.177 47.649 0 65.825l279.273 279.273c18.176 18.177 47.649 18.177 65.825 0zM339.451 620.549c18.177 18.177 47.648 18.177 65.826 0l279.272-279.273c18.176-18.176 18.176-47.649 0-65.825s-47.649-18.176-65.825 0l-279.273 279.272c-18.177 18.177-18.177 47.648 0 65.826z" />
<glyph unicode="&#xe903;" glyph-name="upload-file" horiz-adv-x="1138" d="M450.373 827.241c-170.185 0-308.148-137.962-308.148-308.148 0-84.902 34.274-161.711 89.854-217.49 18.48-18.551 18.425-48.566-0.123-67.044-18.547-18.483-48.564-18.426-67.044 0.119-72.563 72.829-117.501 173.42-117.501 284.414 0 222.55 180.413 402.963 402.963 402.963 144.344 0 270.904-75.919 342.021-189.794 165.478-5.364 297.978-141.2 297.978-307.983 0-95.705-43.691-181.254-112.031-237.694-20.19-16.674-50.074-13.824-66.742 6.366-16.674 20.184-13.824 50.068 6.366 66.736 47.468 39.208 77.591 98.361 77.591 164.592 0 117.821-95.511 213.333-213.333 213.333-26.721 0-52.156 13.922-66.15 37.668-53.652 91.044-152.587 151.962-265.699 151.962zM535.369 481.504c18.513 18.514 48.532 18.514 67.044 0l189.628-189.629c18.517-18.512 18.517-48.532 0-67.044-18.512-18.517-48.526-18.517-67.044 0l-108.698 108.698v-312.212c0-26.186-21.225-47.411-47.411-47.411-26.18 0-47.405 21.225-47.405 47.411v312.212l-108.7-108.698c-18.513-18.517-48.53-18.517-67.044 0-18.513 18.512-18.513 48.532 0 67.044l189.63 189.629z" />
<glyph unicode="&#xe904;" glyph-name="correct" d="M512 960c282.778 0 512-229.222 512-512s-229.222-512-512-512c-282.778 0-512 229.222-512 512s229.222 512 512 512zM512 857.6c-108.633 0-212.816-43.154-289.631-119.969s-119.969-180.998-119.969-289.631c0-108.631 43.154-212.818 119.969-289.633 76.815-76.81 180.998-119.967 289.631-119.967 108.631 0 212.818 43.156 289.633 119.967 76.81 76.815 119.967 181.002 119.967 289.633 0 108.633-43.156 212.816-119.967 289.631-76.815 76.815-181.002 119.969-289.633 119.969zM692.992 633.293c9.19 9.28 21.586 14.696 34.637 15.139 13.056 0.443 25.789-4.121 35.589-12.756s15.928-20.69 17.132-33.697c1.203-13.007-2.611-25.982-10.66-36.269l-4.25-4.813-286.003-286.054c-9.761-9.759-22.768-15.596-36.548-16.399-13.78-0.799-27.376 3.487-38.204 12.047l-4.915 4.352-141.21 141.21c-9.28 9.19-14.696 21.586-15.139 34.639s4.121 25.785 12.756 35.586 20.69 15.929 33.697 17.133c13.007 1.204 25.982-2.61 36.269-10.66l4.813-4.301 108.646-108.595 253.389 253.44z" />
<glyph unicode="&#xe905;" glyph-name="reload" d="M0.002 443.904c-0.307 44.134 46.592 69.427 82.842 49.919l4.864-2.97 137.114-92.364c49.766-33.536 19.302-109.722-37.581-102.758l-5.99 1.024-54.426 11.981c27.663-76.539 77.493-143.099 143.137-191.206 65.644-48.102 144.126-75.566 225.44-78.889 81.316-3.323 161.777 17.644 231.127 60.232s124.447 104.863 158.259 178.888c5.816 12.052 16.113 21.35 28.698 25.902 12.58 4.552 26.445 3.999 38.62-1.541 12.18-5.54 21.709-15.631 26.542-28.104 4.833-12.477 4.593-26.353-0.676-38.651-101.734-223.744-353.075-347.802-598.373-282.061-108.225 28.995-203.956 92.682-272.52 181.294s-106.178 197.263-107.077 309.304zM46.235 660.377c101.734 223.744 353.075 347.75 598.373 282.061 108.221-28.985 203.95-92.661 272.517-181.265 68.562-88.605 106.179-197.25 107.080-309.282 0.358-44.185-46.592-69.529-82.79-49.971l-4.915 2.97-137.114 92.364c-49.766 33.536-19.302 109.722 37.581 102.758l5.99-1.024 54.426-11.981c-27.663 76.536-77.491 143.1-143.135 191.204s-144.128 75.569-225.439 78.892c-81.317 3.323-161.779-17.646-231.128-60.233s-124.446-104.863-158.262-178.887c-2.684-6.27-6.594-11.94-11.501-16.678s-10.709-8.448-17.069-10.912c-6.36-2.464-13.148-3.633-19.965-3.438s-13.528 1.751-19.736 4.575c-6.208 2.824-11.789 6.86-16.416 11.872s-8.205 10.896-10.526 17.31c-2.321 6.413-3.337 13.225-2.989 20.037s2.054 13.485 5.017 19.628z" />
<glyph unicode="&#xe906;" glyph-name="bottom_arrow" horiz-adv-x="1707" d="M110.327 849.673c33.325 33.325 87.355 33.325 120.679 0l622.327-622.326 622.327 622.326c33.324 33.325 87.354 33.325 120.678 0 33.326-33.325 33.326-87.355 0-120.679l-682.667-682.667c-33.324-33.326-87.354-33.326-120.678 0l-682.667 682.667c-33.325 33.324-33.325 87.354 0 120.679z" />
<glyph unicode="&#xe907;" glyph-name="logout" d="M400 880c0-17.673-14.327-32-32-32h-192c-16.974 0-33.252-6.743-45.255-18.745s-18.745-28.281-18.745-45.255v-672c0-16.973 6.743-33.254 18.745-45.254s28.281-18.746 45.255-18.746h192c17.673 0 32-14.33 32-32s-14.327-32-32-32h-192c-33.948 0-66.505 13.485-90.509 37.491s-37.491 56.563-37.491 90.509v672c0 33.948 13.486 66.505 37.491 90.509s56.562 37.491 90.509 37.491h192c17.673 0 32-14.327 32-32zM336 448c0 17.673 14.327 32 32 32h576c17.67 0 32-14.327 32-32s-14.33-32-32-32h-576c-17.673 0-32 14.327-32 32zM681.37 185.37c-12.493 12.499-12.493 32.762 0 45.261l217.376 217.37-217.376 217.373c-12.493 12.497-12.493 32.758 0 45.254 12.499 12.497 32.762 12.497 45.261 0l240-240c12.493-12.497 12.493-32.758 0-45.254l-240-240.003c-12.499-12.493-32.762-12.493-45.261 0z" />
<glyph unicode="&#xe908;" glyph-name="notification" d="M285.729 866.274c60.012 60.012 141.405 93.726 226.274 93.726s166.263-33.714 226.276-93.726c60.013-60.012 93.722-141.405 93.722-226.274 0-163.285 34.95-265.908 68.096-326.675 16.614-30.464 32.954-50.739 44.64-63.066 5.843-6.176 10.547-10.381 13.568-12.896 1.504-1.254 2.592-2.093 3.187-2.534l0.512-0.371c11.558-7.866 16.685-22.33 12.627-35.731-4.090-13.498-16.525-22.726-30.63-22.726h-863.997c-14.101 0-26.541 9.229-30.627 22.726-4.057 13.402 1.068 27.866 12.623 35.731l0.512 0.371c0.598 0.442 1.685 1.28 3.193 2.534 3.015 2.515 7.718 6.72 13.568 12.896 11.681 12.326 28.020 32.602 44.637 63.066 33.147 60.767 68.093 163.39 68.093 326.675 0 84.869 33.714 166.262 93.726 226.274zM153.42 240h717.165c-8.646 12.051-17.69 26.202-26.675 42.675-38.854 71.233-75.91 184.61-75.91 357.325 0 67.896-26.97 133.010-74.976 181.020-48.013 48.009-113.126 74.98-181.021 74.98s-133.010-26.972-181.020-74.98c-48.009-48.010-74.98-113.124-74.98-181.020 0-172.715-37.054-286.092-75.907-357.325-8.986-16.474-18.031-30.624-26.675-42.675zM412.902 43.68c15.287 8.864 34.868 3.661 43.737-11.622 5.626-9.702 13.7-17.754 23.416-23.347s20.731-8.544 31.943-8.544c11.212 0 22.228 2.95 31.944 8.544s17.791 13.645 23.416 23.347c8.868 15.283 28.45 20.486 43.737 11.622 15.287-8.87 20.491-28.448 11.623-43.738-11.252-19.398-27.402-35.501-46.833-46.688-19.432-11.194-41.462-17.088-63.887-17.088s-44.454 5.894-63.886 17.088c-19.432 11.187-35.581 27.29-46.833 46.688-8.868 15.29-3.664 34.867 11.623 43.738z" />
<glyph unicode="&#xe909;" glyph-name="add_user" horiz-adv-x="1126" d="M28.16 448c7.68 186.88 89.6 330.24 250.88 424.96 84.48 48.64 176.64 69.12 271.36 58.88 171.52-15.36 299.52-99.84 386.56-245.76 51.2-84.48 69.12-176.64 61.44-276.48-2.56-35.84-7.68-71.68-20.48-104.96-2.56-7.68-5.12-12.8-15.36-12.8-25.6-7.68-40.96-25.6-40.96-51.2 0-12.8 0-25.6 0-35.84 0-7.68-2.56-12.8-10.24-10.24-10.24 0-23.040 0-33.28 0-12.8 0-10.24 5.12-5.12 12.8 25.6 35.84 43.52 76.8 56.32 117.76 38.4 135.68 17.92 261.12-61.44 376.32-74.24 104.96-179.2 166.4-307.2 181.76-130.56 15.36-243.2-23.040-340.48-112.64-79.36-79.36-125.44-168.96-138.24-276.48-12.8-122.88 23.040-232.96 99.84-327.68 5.12-7.68 10.24-5.12 17.92 0 66.56 51.2 143.36 81.92 225.28 94.72 104.96 17.92 207.36 5.12 307.2-38.4 30.72-12.8 58.88-30.72 84.48-48.64 7.68-5.12 10.24-7.68 7.68-17.92-7.68-20.48-2.56-38.4 15.36-51.2 10.24-7.68 7.68-12.8 0-20.48-46.080-43.52-97.28-74.24-156.16-97.28-130.56-46.080-258.56-40.96-381.44 20.48-151.040 76.8-240.64 199.68-268.8 366.080-5.12 25.6-5.12 48.64-5.12 74.24zM506.88 215.040c-17.92 0-43.52-2.56-66.56-5.12-71.68-10.24-138.24-38.4-197.12-79.36-17.92-10.24-17.92-7.68 0-23.040 5.12-2.56 10.24-7.68 15.36-12.8 92.16-66.56 194.56-94.72 307.2-81.92 87.040 10.24 163.84 43.52 230.4 99.84 7.68 5.12 5.12 7.68 0 12.8-87.040 58.88-179.2 87.040-289.28 89.6zM512 368.64c-99.84 0-179.2 79.36-179.2 181.76 0 99.84 79.36 179.2 181.76 179.2 99.84 0 179.2-79.36 179.2-181.76 0-99.84-79.36-179.2-181.76-179.2zM514.56 675.84c-69.12 0-125.44-56.32-128-128 0-69.12 56.32-125.44 128-128 69.12 0 128 58.88 128 128s-58.88 128-128 128zM1000.96 207.36c0-10.24 0-20.48 0-28.16 0-10.24 2.56-15.36 12.8-15.36 20.48 0 40.96 0 58.88 0s28.16-10.24 28.16-25.6c0-15.36-10.24-25.6-28.16-25.6-20.48 0-40.96 0-58.88 0-10.24 0-15.36-2.56-15.36-12.8 0-20.48 0-40.96 0-58.88s-10.24-28.16-25.6-28.16c-15.36 0-25.6 10.24-25.6 28.16 0 20.48 0 40.96 0 58.88 0 10.24-2.56 15.36-12.8 15.36-20.48 0-40.96 0-58.88 0s-28.16 10.24-28.16 25.6c0 15.36 10.24 25.6 28.16 25.6 20.48 0 40.96 0 58.88 0 10.24 0 15.36 2.56 15.36 12.8 0 20.48 0 40.96 0 58.88s10.24 28.16 25.6 28.16c15.36 0 25.6-10.24 25.6-28.16 0-10.24 0-20.48 0-30.72z" />
<glyph unicode="&#xe90a;" glyph-name="add" d="M512.004 917.333c-259.206 0-469.334-210.128-469.334-469.333 0-259.207 210.128-469.332 469.334-469.332 259.204 0 469.332 210.125 469.332 469.332 0 259.205-210.128 469.333-469.332 469.333zM6.098 448c0 279.403 226.501 505.905 505.905 505.905 279.402 0 505.904-226.501 505.904-505.905 0-279.402-226.501-505.904-505.904-505.904s-505.905 226.501-505.905 505.904zM512 661.333c10.097 0 18.286-8.187 18.286-18.286v-390.094c0-10.101-8.188-18.286-18.286-18.286s-18.286 8.185-18.286 18.286v390.094c0 10.099 8.188 18.286 18.286 18.286zM298.67 448c0 10.097 8.187 18.286 18.286 18.286h390.095c10.101 0 18.286-8.188 18.286-18.286s-8.185-18.286-18.286-18.286h-390.095c-10.099 0-18.286 8.188-18.286 18.286z" />
<glyph unicode="&#xe90b;" glyph-name="user" d="M514.56-40.96c-266.24-2.56-488.96 217.6-486.4 488.96 0 263.68 217.6 486.4 488.96 486.4 261.12 0 486.4-217.6 483.84-491.52 0-263.68-217.6-486.4-486.4-483.84zM949.76 453.12c0 10.24 0 28.16-2.56 43.52-15.36 107.52-58.88 199.68-140.8 273.92-102.4 92.16-225.28 125.44-360.96 104.96-102.4-17.92-186.88-64-253.44-140.8-81.92-92.16-117.76-199.68-110.080-320 5.12-94.72 40.96-176.64 99.84-248.32 5.12-7.68 10.24-7.68 17.92-2.56 33.28 25.6 66.56 43.52 104.96 61.44 89.6 38.4 184.32 51.2 281.6 38.4 89.6-12.8 171.52-46.080 245.76-99.84 7.68-5.12 10.24-5.12 17.92 2.56 64 79.36 97.28 174.080 99.84 286.72zM504.32 215.040c-10.24 0-33.28-2.56-53.76-5.12-79.36-10.24-151.040-40.96-217.6-84.48-7.68-5.12-5.12-7.68 0-10.24 7.68-5.12 15.36-10.24 20.48-15.36 92.16-66.56 194.56-94.72 309.76-81.92 87.040 10.24 163.84 43.52 230.4 97.28 7.68 5.12 7.68 7.68 0 12.8-84.48 56.32-176.64 84.48-289.28 87.040zM512 368.64c-99.84 0-179.2 79.36-179.2 181.76 0 99.84 79.36 179.2 181.76 179.2 99.84 0 179.2-79.36 179.2-181.76 0-99.84-79.36-179.2-181.76-179.2zM514.56 419.84c69.12 0 125.44 58.88 128 128 0 69.12-56.32 125.44-128 128-69.12 0-128-58.88-128-128s58.88-128 128-128z" />
<glyph unicode="&#xe90c;" glyph-name="pig" horiz-adv-x="1144" d="M144.565 330.541c3.012 9.035 3.012 18.071 6.024 24.094 6.024 33.129 9.035 66.259 18.071 99.388 21.082 81.318 69.271 141.553 138.541 186.729 9.035 6.024 12.047 9.035 12.047 21.082-9.035 60.235 6.024 114.447 45.176 159.624 33.129 42.165 78.306 66.259 132.518 75.294 96.376 15.059 189.741-42.165 222.871-126.494 6.024-18.071 12.047-36.141 15.059-54.212 3.012-6.024 3.012-6.024 9.035-6.024 39.153 9.035 81.318 21.082 120.471 30.118 15.059 3.012 27.106-6.024 27.106-21.082 0-33.129 0-66.259 0-99.388 0-6.024 3.012-9.035 6.024-15.059 33.129-33.129 60.235-69.271 78.306-111.435 9.035-18.071 3.012-15.059 24.094-15.059 9.035 0 21.082 0 30.118 0 12.047 0 21.082-9.035 21.082-21.082 0-54.212 0-108.424 0-162.635 0-9.035-6.024-15.059-12.047-18.071-21.082-12.047-42.165-21.082-66.259-33.129-3.012-3.012-6.024-3.012-9.035-6.024-27.106-54.212-66.259-96.376-114.447-126.494-9.035-6.024-12.047-12.047-12.047-21.082 0-18.071 0-36.141 0-54.212s-9.035-27.106-27.106-27.106c-51.2 0-102.4 0-153.6 0-15.059 0-24.094 9.035-24.094 24.094 0 9.035 0 15.059 0 24.094 0 3.012-3.012 6.024-6.024 6.024-33.129 0-66.259 0-99.388 0-3.012 0-6.024 0-6.024-6.024s0-12.047 0-21.082c0-18.071-9.035-27.106-27.106-27.106-36.141 0-72.282 0-105.412 0-15.059 0-30.118 0-45.176 0-18.071 0-27.106 9.035-27.106 27.106s0 39.153 0 57.224c0 6.024-3.012 9.035-6.024 12.047-39.153 24.094-75.294 57.224-99.388 96.376-24.094 36.141-39.153 75.294-48.188 117.459 0 6.024-3.012 9.035-9.035 9.035-27.106 6.024-51.2 21.082-72.282 42.165-18.071 24.094-30.118 48.188-30.118 78.306 0 12.047 0 21.082 0 33.129s9.035 24.094 21.082 24.094c12.047 0 24.094-9.035 24.094-24.094s0-30.118 3.012-42.165c3.012-15.059 9.035-27.106 15.059-42.165 6.024-21.082 15.059-39.153 24.094-60.235 3.012 0 3.012-3.012 6.024-6.024zM846.306 685.929c-3.012 0-6.024 0-6.024 0-45.176-12.047-93.365-24.094-138.541-33.129-18.071-3.012-36.141-12.047-57.224-12.047-60.235 0-117.459 0-177.694 0-42.165 0-81.318-9.035-120.471-30.118-102.4-54.212-162.635-168.659-141.553-289.129 15.059-84.329 63.247-147.576 138.541-186.729 12.047-6.024 18.071-15.059 18.071-27.106 0-15.059 0-30.118 0-48.188 0-6.024 0-9.035 9.035-9.035 6.024 0 12.047 0 18.071 0 27.106 0 54.212 0 78.306 0 6.024 0 9.035 3.012 6.024 6.024 0 6.024 0 12.047 0 18.071-3.012 18.071 9.035 30.118 30.118 30.118 51.2 0 99.388 0 150.588 0 18.071 0 27.106-9.035 27.106-27.106 0-9.035 0-18.071 0-24.094 3.012 0 6.024 0 6.024 0 33.129 0 66.259 0 96.376 0 6.024 0 6.024 3.012 6.024 6.024 0 15.059 0 33.129 0 48.188 0 12.047 6.024 21.082 18.071 27.106 51.2 27.106 90.353 69.271 117.459 123.482 3.012 9.035 9.035 15.059 18.071 18.071 18.071 9.035 36.141 18.071 54.212 27.106 3.012 3.012 6.024 3.012 6.024 9.035 0 36.141 0 72.282 0 108.424 0 6.024-3.012 6.024-6.024 6.024-12.047 0-21.082 0-33.129 0-15.059 0-21.082 6.024-24.094 18.071-15.059 51.2-45.176 96.376-84.329 129.506-6.024 6.024-9.035 12.047-9.035 21.082 0 27.106 0 51.2 0 78.306 0 6.024 0 9.035 0 12.047zM358.4 667.859c6.024 0 9.035 3.012 12.047 3.012 39.153 12.047 81.318 18.071 123.482 15.059 45.176 0 93.365 0 138.541 0 18.071 0 33.129 3.012 51.2 6.024 6.024 0 6.024 3.012 3.012 9.035s-3.012 15.059-6.024 21.082c-18.071 81.318-93.365 135.529-177.694 126.494-54.212-6.024-96.376-33.129-123.482-81.318-12.047-21.082-15.059-48.188-18.071-75.294-3.012-6.024-3.012-15.059-3.012-24.094zM761.976 472.094c12.047 0 24.094-9.035 24.094-24.094 0-12.047-9.035-21.082-24.094-21.082-12.047 0-24.094 12.047-24.094 24.094 3.012 12.047 12.047 21.082 24.094 21.082z" />
<glyph unicode="&#xe90d;" glyph-name="layers" horiz-adv-x="969" d="M489.859 937.859c13.838 0 27.676-2.768 41.514-11.070 99.632-52.584 202.032-107.935 301.665-160.519 27.676-13.838 58.119-30.443 85.795-44.281 30.443-16.605 41.514-38.746 35.978-66.422-2.768-19.373-16.605-30.443-33.211-38.746-33.211-16.605-63.654-33.211-96.865-52.584-2.768-2.768-8.303-2.768-8.303-8.303 0-2.768 5.535-5.535 8.303-5.535 30.443-16.605 63.654-33.211 94.097-49.816s41.514-38.746 35.978-66.422c-2.768-19.373-16.605-30.443-30.443-38.746-33.211-16.605-63.654-33.211-96.865-52.584-2.768-2.768-8.303-2.768-8.303-8.303 0-2.768 5.535-5.535 8.303-5.535 30.443-16.605 63.654-33.211 94.097-49.816s41.514-38.746 35.978-66.422c-2.768-19.373-13.838-30.443-30.443-38.746-88.562-47.049-174.357-91.33-262.919-138.378-44.281-22.141-85.795-47.049-130.076-69.189-27.676-13.838-55.351-13.838-83.027 0-102.4 55.351-204.8 107.935-304.432 163.286-27.676 13.838-58.119 30.443-85.795 44.281-30.443 16.605-41.514 38.746-35.978 66.422 5.535 19.373 16.605 30.443 33.211 38.746 33.211 16.605 63.654 33.211 96.865 49.816 2.768 2.768 8.303 2.768 8.303 8.303s-5.535 5.535-8.303 8.303c-30.443 16.605-63.654 33.211-94.097 49.816s-41.514 38.746-35.978 66.422c2.768 19.373 16.605 30.443 33.211 38.746 33.211 16.605 63.654 33.211 96.865 49.816 2.768 2.768 8.303 2.768 8.303 8.303s-5.535 5.535-8.303 8.303c-30.443 16.605-63.654 33.211-94.097 49.816s-41.514 38.746-35.978 66.422c2.768 16.605 16.605 30.443 30.443 38.746 105.168 55.351 210.335 110.703 312.735 166.054 27.676 13.838 52.584 27.676 80.259 41.514 13.838 5.535 27.676 8.303 41.514 8.303zM489.859 885.276c-2.768 0-5.535-2.768-8.303-2.768-8.303-5.535-16.605-8.303-27.676-13.838-119.005-63.654-238.011-127.308-359.784-190.962-2.768-2.768-8.303-2.768-8.303-5.535 0-5.535 5.535-5.535 8.303-8.303 127.308-66.422 254.616-135.611 381.924-202.032 8.303-5.535 16.605-5.535 24.908 0 41.514 22.141 83.027 44.281 127.308 66.422 85.795 44.281 171.589 91.33 257.384 135.611 2.768 2.768 8.303 2.768 8.303 5.535 0 5.535-5.535 5.535-8.303 5.535-127.308 69.189-257.384 135.611-384.692 204.8-2.768 2.768-8.303 2.768-11.070 5.535zM229.708 525.492c-2.768 0-5.535-2.768-8.303-2.768-41.514-22.141-85.795-44.281-127.308-66.422-2.768-2.768-8.303-2.768-8.303-5.535s5.535-5.535 8.303-5.535c44.281-22.141 88.562-47.049 132.843-69.189 74.724-38.746 152.216-77.492 224.173-119.005 27.676-13.838 47.049-16.605 74.724 0 119.005 66.422 238.011 127.308 357.016 190.962 2.768 2.768 8.303 2.768 8.303 8.303s-5.535 5.535-8.303 8.303c-41.514 22.141-80.259 44.281-121.773 66.422-8.303 5.535-16.605 5.535-24.908 0-66.422-35.978-135.611-71.957-202.032-107.935-33.211-16.605-63.654-16.605-96.865 2.768-66.422 35.978-132.843 71.957-202.032 107.935 2.768-11.070-2.768-8.303-5.535-8.303zM489.859 10.724c2.768 0 5.535 2.768 8.303 2.768 8.303 5.535 19.373 11.070 27.676 13.838 119.005 63.654 238.011 127.308 357.016 188.195 2.768 2.768 8.303 2.768 8.303 8.303 0 2.768-5.535 5.535-8.303 5.535-41.514 22.141-83.027 44.281-121.773 66.422-8.303 5.535-13.838 2.768-22.141 0-69.189-35.978-135.611-71.957-204.8-107.935-30.443-16.605-58.119-13.838-85.795 0-69.189 35.978-135.611 71.957-204.8 107.935-8.303 2.768-13.838 5.535-19.373 0-41.514-22.141-83.027-44.281-124.541-66.422-2.768-2.768-8.303-2.768-8.303-5.535 0-5.535 5.535-5.535 8.303-5.535 127.308-69.189 257.384-135.611 384.692-204.8-2.768 0 2.768 0 5.535-2.768z" />
<glyph unicode="&#xe90e;" glyph-name="card" horiz-adv-x="1263" d="M843.093 901.973c102.4 0 204.8 0 303.787 0 61.44 0 98.987-37.547 98.987-98.987 0-143.36 0-283.307 0-426.667 0-58.027-40.96-95.573-98.987-95.573-98.987 0-197.973 0-296.96 0-13.653 0-27.307-3.413-37.547-13.653-119.467-88.747-238.933-177.493-354.987-266.24-30.72-23.893-61.44-34.133-98.987-34.133-85.333 0-170.667 0-252.587 0-6.827 0-13.653 0-20.48 3.413-13.653 3.413-20.48 13.653-20.48 30.72 0 13.653 10.24 23.893 27.307 27.307 6.827 0 10.24 0 17.067 0 81.92 0 163.84 0 245.76 0 27.307 0 54.613 6.827 75.093 23.893 139.947 105.813 276.48 208.213 416.427 310.613 13.653 10.24 13.653 17.067 3.413 27.307s-20.48 20.48-30.72 30.72c-54.613 54.613-143.36 61.44-204.8 13.653-58.027-44.373-116.053-92.16-174.080-139.947-6.827-3.413-10.24-10.24-17.067-10.24-13.653-6.827-27.307-3.413-37.547 10.24s-6.827 27.307 3.413 37.547c13.653 13.653 27.307 23.893 40.96 34.133 6.827 6.827 10.24 13.653 10.24 23.893 0 85.333 0 167.253 0 252.587 0 13.653-6.827 17.067-17.067 13.653-54.613-10.24-102.4-34.133-139.947-75.093-51.2-51.2-102.4-102.4-153.6-153.6-6.827-6.827-10.24-10.24-17.067-13.653-13.653-6.827-23.893-6.827-34.133 3.413s-13.653 23.893-3.413 34.133c3.413 3.413 3.413 6.827 6.827 10.24 64.853 64.853 126.293 129.707 194.56 191.147 30.72 30.72 78.507 51.2 133.12 58.027 27.307 3.413 27.307 3.413 27.307 30.72 0 23.893-3.413 51.2 0 75.093 6.827 51.2 44.373 81.92 95.573 81.92 105.813 3.413 208.213 3.413 310.613 3.413zM843.093 656.213c-51.2 0-102.4 0-153.6 0-58.027 0-116.053 0-170.667 0-10.24 0-17.067 0-17.067-13.653 0-68.267 0-136.533 0-204.8 0-10.24 3.413-13.653 10.24-6.827 20.48 17.067 37.547 30.72 58.027 47.787 71.68 54.613 167.253 64.853 245.76 17.067 51.2-30.72 98.987-68.267 88.747-139.947-3.413-17.067 10.24-17.067 20.48-17.067 81.92 0 163.84 0 242.347 0 23.893 0 23.893 0 23.893 23.893 0 88.747 0 180.907 0 269.653 0 23.893 0 23.893-23.893 23.893-109.227 0-218.453 0-324.267 0zM843.093 843.947c-109.227 0-218.453 0-324.267 0-10.24 0-20.48 0-20.48-13.653 0-34.133 0-64.853 0-98.987 0-10.24 3.413-13.653 17.067-13.653s27.307 0 37.547 0c204.8 0 409.6 0 610.987 0 17.067 0 23.893 3.413 23.893 20.48 0 27.307 0 58.027 0 85.333 0 17.067-6.827 20.48-23.893 20.48-105.813 0-215.040 0-320.853 0z" />
<glyph unicode="&#xe90f;" glyph-name="file_secure" horiz-adv-x="830" d="M58.119 448c0-138.378 0-273.989 0-412.368 0-19.373 0-19.373 19.373-19.373 88.562 0 177.124 0 265.686 0 19.373 0 19.373 0 19.373-19.373 0-33.211 5.535-30.443-30.443-30.443-77.492 0-157.751 0-235.243 0-55.351 0-85.795 30.443-85.795 85.795 0 262.919 0 525.838 0 791.524 0 52.584 30.443 83.027 83.027 83.027 124.541 0 249.081 0 370.854 0 24.908 0 44.281-8.303 60.886-24.908 71.957-71.957 146.681-146.681 218.638-218.638 16.605-16.605 24.908-35.978 24.908-58.119 0-60.886 0-124.541 0-185.427 0-16.605 0-19.373-16.605-19.373-33.211 0-30.443-2.768-30.443 30.443s0 69.189 0 102.4c0 19.373 0 19.373-19.373 19.373-74.724 0-152.216 0-226.941 0-16.605 0-30.443 2.768-44.281 13.838-11.070 11.070-16.605 24.908-16.605 38.746 0 77.492 0 154.984 0 229.708 0 19.373 0 19.373-19.373 19.373-107.935 0-213.103 0-321.038 0-19.373 0-19.373 0-19.373-19.373 2.768-132.843 2.768-268.454 2.768-406.832zM730.638 625.124c-88.562 88.562-177.124 177.124-265.686 262.919-2.768-2.768 0-5.535 0-11.070 0-80.259 0-157.751 0-238.011 0-13.838 5.535-16.605 19.373-16.605 77.492 0 157.751 0 235.243 0 2.768 2.768 8.303 2.768 11.070 2.768zM819.2 193.384c2.768-41.514 0-83.027-22.141-121.773-33.211-58.119-80.259-94.097-149.449-102.4-33.211-2.768-60.886 8.303-88.562 24.908-60.886 38.746-91.33 94.097-94.097 163.286 0 24.908 0 52.584 0 77.492 0 19.373 5.535 24.908 22.141 30.443 44.281 13.838 91.33 30.443 135.611 44.281 11.070 2.768 22.141 2.768 33.211 0 44.281-16.605 91.33-30.443 135.611-44.281 19.373-5.535 22.141-11.070 22.141-30.443 5.535-11.070 5.535-27.676 5.535-41.514zM772.151 176.778c0 16.605 0 27.676 0 38.746 0 8.303-2.768 13.838-11.070 16.605-35.978 11.070-71.957 22.141-105.168 35.978-5.535 2.768-11.070 2.768-16.605 0-35.978-11.070-71.957-24.908-107.935-35.978-8.303-2.768-11.070-8.303-11.070-16.605 0-19.373 0-35.978 0-55.351 2.768-69.189 47.049-124.541 113.47-141.146 8.303-2.768 19.373-2.768 27.676 0 35.978 8.303 66.422 27.676 88.562 58.119 16.605 33.211 24.908 66.422 22.141 99.632z" />
<glyph unicode="&#xe910;" glyph-name="file_upload" horiz-adv-x="830" d="M38.746 431.395c0 132.843 0 265.686 0 395.762 0 52.584 30.443 83.027 83.027 83.027 121.773 0 246.314 0 368.086 0 24.908 0 47.049-8.303 63.654-27.676 71.957-71.957 143.914-143.914 215.87-215.87 16.605-16.605 24.908-38.746 24.908-60.886 0-190.962 0-384.692 0-575.654 0-49.816-30.443-80.259-80.259-80.259-199.265 0-398.53 0-597.795 0-47.049 0-80.259 33.211-80.259 80.259 2.768 135.611 2.768 268.454 2.768 401.297zM85.795 431.395c0-138.378 0-273.989 0-412.368 0-19.373 0-19.373 19.373-19.373 207.568 0 417.903 0 625.47 0 19.373 0 19.373 0 19.373 19.373 0 174.357 0 345.946 0 520.303 0 19.373 0 19.373-19.373 19.373-74.724 0-149.449 0-224.173 0-33.211 0-60.886 16.605-60.886 60.886 2.768 74.724 0 149.449 0 224.173 0 19.373 0 19.373-19.373 19.373-105.168 0-213.103 0-318.27 0-22.141 0-22.141 0-22.141-22.141 0-135.611 0-273.989 0-409.6zM492.627 874.205c-2.768-2.768 0-8.303 0-11.070 0-77.492 0-157.751 0-235.243 0-13.838 5.535-19.373 19.373-19.373 77.492 0 157.751 0 235.243 0 5.535 0 8.303-2.768 11.070 0-88.562 88.562-177.124 177.124-265.686 265.686zM387.459 376.043c-19.373-19.373-41.514-41.514-60.886-60.886-11.070-11.070-27.676-11.070-35.978 2.768-5.535 8.303-8.303 16.605-2.768 24.908 2.768 5.535 5.535 8.303 8.303 11.070 33.211 33.211 66.422 66.422 96.865 96.865 13.838 13.838 27.676 16.605 41.514 0 33.211-33.211 69.189-66.422 102.4-102.4 13.838-13.838 13.838-24.908 2.768-35.978s-24.908-8.303-35.978 2.768c-16.605 16.605-33.211 33.211-49.816 49.816-2.768 2.768-5.535 8.303-11.070 8.303-2.768-5.535-2.768-11.070-2.768-13.838 0-55.351 0-113.47 0-168.822 0-8.303 0-13.838-2.768-19.373-2.768-11.070-11.070-16.605-22.141-16.605s-19.373 5.535-22.141 16.605c-2.768 5.535-2.768 13.838-2.768 19.373 0 55.351 0 113.47 0 168.822 0 5.535 0 11.070 0 13.838 2.768 2.768 0 2.768-2.768 2.768z" />
<glyph unicode="&#xe911;" glyph-name="close" d="M517.12-43.52c-271.36 0-486.4 220.16-486.4 491.52s220.16 486.4 491.52 486.4c271.36 0 486.4-220.16 486.4-491.52-5.12-271.36-225.28-486.4-491.52-486.4zM952.32 442.88c0 235.52-199.68 435.2-435.2 435.2s-430.080-194.56-430.080-435.2c0-235.52 194.56-435.2 435.2-435.2 230.4 0 430.080 199.68 430.080 435.2zM691.2 299.52c0-10.24-5.12-20.48-15.36-25.6-15.36-5.12-25.6-5.12-35.84 5.12-30.72 30.72-66.56 66.56-97.28 97.28-25.6 25.6-25.6 25.6-51.2 0-30.72-30.72-61.44-61.44-92.16-92.16-15.36-15.36-30.72-20.48-46.080-5.12s-10.24 30.72 5.12 46.080c35.84 35.84 66.56 66.56 102.4 102.4 10.24 10.24 10.24 20.48 0 30.72-35.84 30.72-66.56 66.56-102.4 102.4-10.24 10.24-20.48 25.6-5.12 46.080 15.36 15.36 30.72 5.12 46.080-5.12 30.72-35.84 66.56-66.56 97.28-102.4 15.36-15.36 25.6-15.36 40.96 0 30.72 35.84 66.56 66.56 97.28 97.28 15.36 15.36 30.72 20.48 46.080 5.12s10.24-30.72-5.12-46.080c-35.84-35.84-66.56-66.56-102.4-102.4-10.24-10.24-15.36-20.48 0-35.84 35.84-30.72 66.56-66.56 102.4-102.4 5.12 5.12 15.36-5.12 15.36-15.36z" />
<glyph unicode="&#xe912;" glyph-name="user_group" horiz-adv-x="1321" d="M657.342-34.271c-79.277 3.303-165.161 3.303-247.742 26.426-33.032 9.91-66.065 19.819-92.49 42.942-42.942 39.639-52.852 85.884-33.032 138.735s59.458 92.49 102.4 122.219c175.071 125.523 416.206 115.613 581.368-23.123 33.032-29.729 62.761-62.761 75.974-105.703 23.123-62.761 0-118.916-59.458-151.948-39.639-23.123-82.581-33.032-125.523-39.639-62.761-6.606-128.826-9.91-201.497-9.91zM660.645 21.884c66.065 0 132.129 3.303 194.89 13.213 33.032 6.606 69.368 13.213 99.097 29.729 39.639 19.819 52.852 56.155 33.032 95.794-9.91 19.819-19.819 36.335-33.032 49.548-72.671 72.671-161.858 109.006-260.955 115.613-85.884 6.606-165.161-13.213-241.135-56.155-46.245-26.426-89.187-62.761-112.31-112.31-16.516-36.335-9.91-66.065 26.426-89.187 19.819-13.213 42.942-19.819 66.065-26.426 72.671-16.516 151.948-16.516 227.923-19.819zM872.052 722.168c0-115.613-92.49-211.406-208.103-211.406s-211.406 95.794-211.406 208.103c0 115.613 92.49 211.406 211.406 211.406 115.613 0 208.103-92.49 208.103-208.103zM663.948 874.116c-85.884 0-155.252-69.368-155.252-151.948s69.368-155.252 151.948-155.252c85.884 0 155.252 69.368 155.252 155.252s-66.065 151.948-151.948 151.948zM270.865 451.303c-66.065 0-118.916 52.852-118.916 118.916s56.155 118.916 118.916 118.916c62.761 0 118.916-56.155 118.916-118.916 0-66.065-52.852-118.916-118.916-118.916zM333.626 570.219c0 36.335-26.426 62.761-62.761 62.761s-62.761-26.426-59.458-62.761c0-36.335 26.426-62.761 62.761-62.761 33.032 0 59.458 26.426 59.458 62.761zM1057.032 451.303c-66.065 0-118.916 52.852-118.916 118.916 0 62.761 52.852 118.916 118.916 118.916s118.916-52.852 118.916-118.916c0-66.065-52.852-118.916-118.916-118.916zM994.271 573.523c0-36.335 26.426-62.761 59.458-66.065 33.032 0 62.761 26.426 66.065 59.458 0 33.032-26.426 62.761-59.458 66.065-33.032 0-62.761-26.426-66.065-59.458zM1179.252 127.587c-3.303 16.516 3.303 23.123 23.123 29.729 33.032 6.606 39.639 39.639 16.516 62.761-16.516 16.516-36.335 26.426-56.155 36.335-13.213 3.303-23.123 13.213-29.729 26.426s-16.516 23.123-23.123 36.335c-3.303 3.303-6.606 6.606-3.303 9.91 0 3.303 3.303 0 6.606 0 69.368-9.91 128.826-33.032 168.465-95.794 29.729-46.245 16.516-92.49-33.032-118.916-16.516-6.606-29.729-13.213-46.245-16.516-19.819-3.303-19.819-3.303-19.819 16.516-3.303 3.303-3.303 6.606-3.303 13.213zM218.013 322.477c3.303 0 6.606 3.303 9.91 0 0-3.303 0-6.606-3.303-6.606-9.91-16.516-23.123-33.032-33.032-49.548-3.303-6.606-9.91-6.606-16.516-9.91-19.819-6.606-39.639-19.819-59.458-33.032-13.213-9.91-19.819-23.123-16.516-39.639s16.516-26.426 33.032-29.729c16.516-3.303 23.123-9.91 19.819-26.426 0-3.303 0-6.606 0-6.606 0-29.729 0-29.729-26.426-23.123-19.819 3.303-39.639 9.91-56.155 23.123-33.032 23.123-42.942 56.155-26.426 92.49 16.516 39.639 49.548 66.065 89.187 85.884 23.123 13.213 52.852 23.123 85.884 23.123z" />
<glyph unicode="&#xe913;" glyph-name="save" d="M176 848c-16.973 0-33.252-6.743-45.255-18.745s-18.745-28.282-18.745-45.255v-672c0-16.973 6.744-33.254 18.745-45.254 12.001-12.006 28.279-18.746 45.255-18.746h672c16.973 0 33.261 6.746 45.254 18.746 12 11.994 18.746 28.282 18.746 45.254v514.745l-221.254 221.255h-514.746zM85.491 874.509c24.004 24.005 56.562 37.491 90.509 37.491h528c8.486 0 16.627-3.371 22.63-9.373l240-240c5.997-6.001 9.37-14.14 9.37-22.627v-528c0-33.946-13.478-66.502-37.485-90.515-24.013-24.006-56.57-37.485-90.515-37.485h-672c-33.945 0-66.504 13.485-90.509 37.485-24.005 24.006-37.491 56.57-37.491 90.515v672c0 33.948 13.486 66.506 37.491 90.509zM240 400c0 17.673 14.327 32 32 32h480c17.67 0 32-14.327 32-32v-384c0-17.67-14.33-32-32-32s-32 14.33-32 32v352h-416v-352c0-17.67-14.327-32-32-32s-32 14.33-32 32v384zM272 912c17.673 0 32-14.327 32-32v-208h352c17.67 0 32-14.327 32-32s-14.33-32-32-32h-384c-17.673 0-32 14.327-32 32v240c0 17.673 14.327 32 32 32z" />
<glyph unicode="&#xe914;" glyph-name="minus" horiz-adv-x="4608" d="M0 448c0 141.385 114.615 256 256 256h4096c141.384 0 256-114.615 256-256s-114.616-256-256-256h-4096c-141.385 0-256 114.616-256 256z" />
<glyph unicode="&#xe915;" glyph-name="plus" d="M512 908.8c28.277 0 51.2-22.923 51.2-51.2v-819.2c0-28.277-22.923-51.2-51.2-51.2s-51.2 22.923-51.2 51.2v819.2c0 28.277 22.923 51.2 51.2 51.2zM51.2 448c0 28.277 22.923 51.2 51.2 51.2h819.2c28.277 0 51.2-22.923 51.2-51.2s-22.923-51.2-51.2-51.2h-819.2c-28.277 0-51.2 22.923-51.2 51.2z" />
<glyph unicode="&#xe916;" glyph-name="edit_card" horiz-adv-x="1065" d="M512-9.388c0 11.309 9.171 20.48 20.48 20.48h491.52c11.309 0 20.48-9.171 20.48-20.48 0-11.313-9.171-20.48-20.48-20.48h-491.52c-11.309 0-20.48 9.167-20.48 20.48zM860.16 905.19c-25.293 0-49.553-10.048-67.437-27.934l-678.657-678.657-44.959-179.835 179.836 44.962 678.657 678.654c8.856 8.856 15.88 19.37 20.673 30.941s7.258 23.973 7.258 36.497c0 12.524-2.466 24.926-7.258 36.497s-11.817 22.085-20.673 30.941c-8.86 8.856-19.37 15.881-30.941 20.674s-23.974 7.26-36.499 7.26zM763.761 906.219c25.567 25.567 60.244 39.931 96.399 39.931 17.904 0 35.631-3.526 52.171-10.378 16.544-6.851 31.572-16.894 44.233-29.553 12.657-12.66 22.7-27.689 29.553-44.229 6.849-16.54 10.375-34.269 10.375-52.172s-3.527-35.632-10.375-52.172c-6.853-16.54-16.896-31.57-29.553-44.229l-682.668-682.667c-2.625-2.626-5.913-4.485-9.515-5.386l-218.453-54.612c-6.979-1.745-14.362 0.299-19.449 5.386s-7.132 12.468-5.387 19.448l54.613 218.452c0.9 3.604 2.762 6.889 5.387 9.515l682.668 682.668z" />
<glyph unicode="&#xe917;" glyph-name="entities_list" horiz-adv-x="1144" d="M400.565 740.141c0-30.118 0-60.235 0-90.353-3.012-51.2-36.141-87.341-87.341-87.341-60.235-3.012-123.482-3.012-183.718 0-54.212 0-90.353 36.141-90.353 90.353 0 60.235-3.012 123.482 0 183.718 0 51.2 36.141 87.341 87.341 87.341 60.235 3.012 123.482 3.012 183.718 0 54.212 0 87.341-36.141 90.353-90.353 0-30.118 0-63.247 0-93.365zM219.859 860.612c-30.118 0-60.235 0-90.353 0-24.094 0-30.118-9.035-30.118-33.129 0-57.224 0-114.447 0-171.671 0-24.094 9.035-33.129 33.129-33.129 57.224 0 114.447 0 171.671 0 24.094 0 33.129 9.035 33.129 33.129 0 57.224 0 111.435 0 168.659 0 24.094-9.035 36.141-36.141 36.141s-54.212 0-81.318 0zM219.859 321.506c30.118 0 63.247 0 93.365 0 51.2-3.012 84.329-36.141 87.341-87.341 3.012-63.247 3.012-126.494 0-186.729 0-51.2-36.141-87.341-87.341-87.341-63.247-3.012-126.494-3.012-186.729 0-51.2 3.012-84.329 36.141-87.341 87.341-3.012 63.247-3.012 126.494 0 192.753 3.012 48.188 36.141 81.318 84.329 84.329 30.118-3.012 63.247-3.012 96.376-3.012zM99.388 140.8c0-30.118 0-57.224 0-87.341 0-27.106 9.035-36.141 36.141-36.141 57.224 0 111.435 0 168.659 0 24.094 0 33.129 9.035 33.129 33.129 0 57.224 0 114.447 0 171.671 0 24.094-9.035 33.129-33.129 33.129-57.224 0-114.447 0-171.671 0-21.082 0-33.129-9.035-33.129-30.118 0-27.106 0-54.212 0-84.329zM852.329 860.612c-75.294 0-147.576 0-222.871 0-21.082 0-48.188 0-48.188 30.118s24.094 33.129 48.188 33.129c147.576 0 295.153 0 442.729 0 21.082 0 48.188 0 48.188-30.118s-24.094-33.129-48.188-33.129c-72.282 0-147.576 0-219.859 0zM852.329 258.259c-75.294 0-147.576 0-222.871 0-24.094 0-48.188 3.012-48.188 33.129 0 27.106 24.094 30.118 48.188 30.118 147.576 0 295.153 0 442.729 0 24.094 0 48.188-3.012 48.188-33.129 0-27.106-24.094-30.118-48.188-30.118-72.282 0-147.576 0-219.859 0zM728.847 619.671c-36.141 0-72.282 0-108.424 0-21.082 0-39.153 6.024-39.153 30.118s18.071 30.118 39.153 33.129c75.294 0 147.576 0 222.871 0 21.082 0 39.153-6.024 39.153-30.118s-18.071-30.118-39.153-30.118c-39.153-3.012-78.306-3.012-114.447-3.012zM728.847 17.318c-36.141 0-72.282 0-108.424 0-21.082 0-39.153 6.024-39.153 30.118 0 27.106 18.071 33.129 39.153 33.129 72.282 0 144.565 0 216.847 0 21.082 0 39.153-6.024 39.153-30.118 0-27.106-18.071-33.129-39.153-33.129-33.129 0-69.271 0-108.424 0z" />
<glyph unicode="&#xe918;" glyph-name="created_entities" d="M31.289 445.156c0 130.844 0 261.689 0 389.689 0 59.733 34.133 93.867 93.867 93.867 261.689 0 520.533 0 782.222 0 56.889 0 93.867-34.133 93.867-93.867 0-261.689 0-523.378 0-785.067 0-56.889-34.133-91.022-91.022-91.022-261.689 0-523.378 0-785.067 0-56.889 0-91.022 34.133-91.022 91.022-2.844 133.689-2.844 264.533-2.844 395.378zM88.178 445.156c0-133.689 0-267.378 0-401.067 0-22.756 0-25.6 25.6-25.6 267.378 0 534.756 0 802.133 0 22.756 0 22.756 0 22.756 22.756 0 267.378 0 537.6 0 804.978 0 22.756 0 22.756-22.756 22.756-267.378 0-534.756 0-802.133 0-25.6 0-25.6 0-25.6-25.6 0-130.844 0-264.533 0-398.222zM432.356 260.267c-8.533 0-17.067 5.689-25.6 14.222-51.2 51.2-99.556 99.556-150.756 150.756-14.222 14.222-14.222 31.289-2.844 45.511 14.222 14.222 28.444 14.222 45.511-2.844 39.822-39.822 82.489-79.644 119.467-119.467 11.378-11.378 19.911-14.222 31.289 0 91.022 91.022 182.044 184.889 275.911 275.911 5.689 5.689 11.378 11.378 17.067 14.222 14.222 8.533 25.6 5.689 36.978-5.689s11.378-25.6 0-36.978c-2.844-2.844-5.689-5.689-8.533-8.533-102.4-102.4-204.8-204.8-310.044-310.044-5.689-8.533-14.222-17.067-28.444-17.067z" />
<glyph unicode="&#xe919;" glyph-name="eye" horiz-adv-x="1317" d="M96.39 448c0.171 0.306 0.345 0.614 0.521 0.927 6.429 11.43 16.118 27.928 28.954 47.803 25.717 39.82 63.829 92.823 113.388 145.685 99.784 106.437 241.644 207.87 419.034 207.87 177.386 0 319.247-101.433 419.035-207.87 49.554-52.863 87.669-105.865 113.386-145.685 12.837-19.875 22.528-36.373 28.957-47.803 0.176-0.313 0.344-0.622 0.519-0.927-0.176-0.305-0.344-0.614-0.519-0.927-6.429-11.43-16.121-27.928-28.957-47.803-25.717-39.82-63.832-92.823-113.386-145.685-99.789-106.435-241.649-207.87-419.035-207.87-177.39 0-319.25 101.435-419.034 207.87-49.559 52.863-87.67 105.865-113.388 145.685-12.836 19.875-22.524 36.373-28.954 47.803-0.176 0.313-0.35 0.622-0.521 0.927zM1261.714 448c32.709 16.355 32.702 16.368 32.695 16.383l-0.015 0.037-0.059 0.105-0.161 0.329-0.578 1.126c-0.49 0.955-1.2 2.315-2.114 4.053-1.843 3.476-4.535 8.466-8.075 14.753-7.066 12.57-17.525 30.358-31.261 51.626-27.421 42.465-68.169 99.177-121.468 156.029-105.925 112.992-265.779 230.987-472.393 230.987-206.61 0-366.465-117.996-472.395-230.987-53.298-56.852-94.044-113.564-121.47-156.029-13.735-21.268-24.19-39.055-31.261-51.626-3.537-6.287-6.231-11.277-8.070-14.753-0.92-1.738-1.626-3.098-2.117-4.053l-0.575-1.126-0.219-0.434-0.019-0.037c-0.007-0.015-0.014-0.027 32.697-16.383l-32.711 16.355c-5.148-10.296-5.148-22.415 0-32.711l32.711 16.355c-32.711-16.355-32.704-16.368-32.697-16.383l0.019-0.037 0.219-0.434 0.575-1.126c0.491-0.955 1.197-2.315 2.117-4.053 1.839-3.476 4.534-8.466 8.070-14.753 7.071-12.57 17.525-30.358 31.261-51.626 27.425-42.465 68.171-99.177 121.47-156.031 105.93-112.991 265.784-230.985 472.395-230.985 206.614 0 366.468 117.994 472.393 230.985 53.299 56.854 94.047 113.566 121.468 156.031 13.736 21.268 24.196 39.055 31.261 51.626 3.54 6.287 6.232 11.277 8.075 14.753 0.914 1.738 1.624 3.098 2.114 4.053l0.578 1.126 0.161 0.329 0.059 0.105 0.015 0.037c0.007 0.015 0.015 0.027-32.695 16.383zM1261.714 448l32.709-16.355c5.149 10.296 5.149 22.415 0 32.711l-32.709-16.355zM658.286 576c-70.693 0-128-57.307-128-128s57.307-128 128-128c70.693 0 128 57.307 128 128s-57.307 128-128 128zM457.143 448c0 111.088 90.055 201.143 201.143 201.143 111.089 0 201.143-90.055 201.143-201.143s-90.053-201.143-201.143-201.143c-111.088 0-201.143 90.055-201.143 201.143z" />
<glyph unicode="&#xe91a;" glyph-name="change" horiz-adv-x="910" d="M648.329 937.447c11.11 11.108 29.121 11.108 40.232 0l170.667-170.667c11.105-11.108 11.105-29.118 0-40.226l-170.667-170.667c-11.11-11.109-29.121-11.109-40.232 0-11.105 11.108-11.105 29.118 0 40.226l150.556 150.554-150.556 150.554c-11.105 11.108-11.105 29.118 0 40.226zM241.778 718.222c-37.72 0-73.895-14.984-100.566-41.656s-41.656-62.847-41.656-100.566v-85.333c0-15.709-12.735-28.444-28.444-28.444s-28.444 12.735-28.444 28.444v85.333c0 52.808 20.978 103.452 58.319 140.793s87.985 58.319 140.793 58.319h597.333c15.707 0 28.444-12.735 28.444-28.444s-12.737-28.444-28.444-28.444h-597.333zM261.891 340.116c11.109-11.11 11.109-29.121 0-40.232l-150.553-150.551 150.553-150.551c11.109-11.11 11.109-29.121 0-40.232-11.108-11.105-29.118-11.105-40.226 0l-170.667 170.667c-11.108 11.11-11.108 29.121 0 40.232l170.667 170.667c11.108 11.105 29.118 11.105 40.226 0zM839.111 433.778c15.707 0 28.444-12.735 28.444-28.444v-85.333c0-52.81-20.975-103.452-58.317-140.794s-87.984-58.317-140.794-58.317h-597.333c-15.709 0-28.444 12.737-28.444 28.444s12.735 28.444 28.444 28.444h597.333c37.717 0 73.893 14.985 100.568 41.654 26.67 26.675 41.654 62.851 41.654 100.568v85.333c0 15.709 12.737 28.444 28.444 28.444z" />
<glyph unicode="&#xe91b;" glyph-name="download" d="M80 336c17.673 0 32-14.327 32-32v-192c0-16.973 6.743-33.254 18.745-45.254s28.281-18.746 45.255-18.746h672c16.973 0 33.254 6.746 45.254 18.746s18.746 28.282 18.746 45.254v192c0 17.673 14.33 32 32 32s32-14.327 32-32v-192c0-33.946-13.485-66.502-37.491-90.509s-56.563-37.491-90.509-37.491h-672c-33.948 0-66.505 13.485-90.509 37.491s-37.491 56.563-37.491 90.509v192c0 17.673 14.327 32 32 32zM249.373 566.627c12.497 12.497 32.758 12.497 45.254 0l217.373-217.372 217.37 217.372c12.499 12.497 32.762 12.497 45.261 0 12.493-12.497 12.493-32.758 0-45.254l-240.003-240.003c-12.497-12.493-32.758-12.493-45.254 0l-240 240.003c-12.497 12.497-12.497 32.758 0 45.254zM512 912c17.673 0 32-14.327 32-32v-576c0-17.67-14.327-32-32-32s-32 14.33-32 32v576c0 17.673 14.327 32 32 32z" />
<glyph unicode="&#xe91c;" glyph-name="doc" d="M149.333 106.667v682.667c0 28.29 11.246 55.413 31.25 75.417s47.127 31.25 75.417 31.25l343.437-0.104c4.885-0.484 9.478-2.644 12.979-6.146l256-256.001c4.002-4 6.251-9.425 6.251-15.083v-512c0-28.29-11.247-55.413-31.249-75.418-20.004-20.002-47.127-31.249-75.418-31.249h-512c-28.29 0-55.413 11.247-75.417 31.249-20.004 20.004-31.25 47.127-31.25 75.418zM192 106.667c0-16.973 6.748-33.248 18.75-45.25s28.277-18.75 45.25-18.75h512c16.973 0 33.248 6.748 45.25 18.75s18.75 28.277 18.75 45.25v503.166l-243.501 243.501h-332.499c-16.973 0-33.248-6.748-45.25-18.75s-18.75-28.276-18.75-45.25v-682.667zM576 874.667c0 11.782 9.551 21.333 21.333 21.333s21.333-9.551 21.333-21.333v-234.667h234.667c11.782 0 21.333-9.551 21.333-21.333s-9.551-21.333-21.333-21.333h-256c-11.782 0-21.333 9.551-21.333 21.333v256zM682.667 426.667c11.782 0 21.333-9.551 21.333-21.333s-9.551-21.333-21.333-21.333h-341.333c-11.782 0-21.333 9.551-21.333 21.333s9.551 21.333 21.333 21.333h341.333zM682.667 256c11.782 0 21.333-9.551 21.333-21.333s-9.551-21.333-21.333-21.333h-341.333c-11.782 0-21.333 9.551-21.333 21.333s9.551 21.333 21.333 21.333h341.333zM426.667 597.333c11.782 0 21.333-9.551 21.333-21.333s-9.551-21.333-21.333-21.333h-85.333c-11.782 0-21.333 9.551-21.333 21.333s9.551 21.333 21.333 21.333h85.333z" />
<glyph unicode="&#xe91d;" glyph-name="arrow-up-right" d="M713.997 672.645c6.246 6.247 16.374 6.243 22.624 0 6.25-6.248 6.25-16.377 0-22.625l-426.656-426.657c-6.248-6.246-16.376-6.246-22.625 0-6.243 6.25-6.246 16.381 0 22.627l426.657 426.655zM709.312 234.675v410.658h-410.656c-8.836 0-16 7.163-16 16s7.164 16 16 16h426.656c8.838 0 16-7.164 16-16v-426.658c0-8.835-7.162-16-16-16-8.832 0.006-16 7.168-16 16z" />
</font>
</defs>
</svg>
